港知堂社区

 找回密码
 注册
查看: 160|回复: 5

[百度] [港台][1971][追命枪][国语无字][DVD9-MKV/1.36G][原创压制]

[复制链接]

95

主题

4

好友

4万

积分

元婴修士

Rank: 5Rank: 5

  • TA的每日心情
    奋斗
    2 小时前
  • 签到天数: 825 天

    [LV.10]以坛为家III

    升级   75.18%

    内力
    2229 点
    在线时间
    1326 小时
    银子
    70264 两
    威望
    12 点
    金叶子
    0 片
    最后登录
    2017-8-19
    注册时间
    2013-3-8
    帖子
    747
    精华
    0
    积分
    40073
    阅读权限
    60
    UID
    25630
    发表于 2017-8-11 21:50:48 |显示全部楼层


    ◎译  名    Blood of the Dragon /Dangerous Chase /The Desperate Chase /Blood of the Ninja                     
    ◎片  名  追命枪
    ◎年  代    1971 
    ◎地  区  中国港台
    ◎类  别    剧情 / 动作 / 武侠 / 古装 
    ◎语  言    国语 
    ◎字  幕    无 
    ◎豆瓣评分    7.3分  
    ◎豆瓣链接    https://movie.douban.com/subject/3182216/
    ◎文件格式 x264+AC3
    ◎视频尺寸 1024X440
    ◎文件大小    1.36G 
    ◎片  长    1:30:34 
    ◎导  演 高宝树
    ◎主  演   王羽 焦姣 游龙 楊洋 苗天 易原 葛小宝 江青霞 苏真平

    ◎简  介   
           影片拍摄于1971年,导演高宝树,主演王羽、易原、焦娇。王羽在片中白衣飘飘,手持银枪,在身受重伤后仍然枪挑数十人,最后站立而死的场面令人印象深刻,白衣大侠也成了王羽古装片的标准形象,后来他还在《战神滩》《一夫当关》等片中重复着这一形象。 追命龙戴天与神刀马辉比武,龙胜出,随即马忧郁而死,马辉之子马腾打到龙欲替父报仇,把龙打成重伤,后龙发现马腾乃是忠义之士却被丞相府时的高手追杀,欲取忠义之士人员手册,龙为掩护马带密册离开,自己与敌人同归于尽,从而保住了密册。  
    ◎参    数
    F:\追命枪.1971\追命枪.Blood.of.the.Dragon.1971.DVDRip.x264.AC3-DEARL.mkv
      General
        Unique ID : 201138675668543959259982324265858135145 (0x9751E65C349AF49BBB1A4D470B447469)
        Complete name : F:\追命枪.Blood.of.the.Dragon.1971.DVDRip.x264.AC3-DEARL.mkv
        Format : Matroska
        Format version : Version 2
        File size : 1.37 GiB
        Duration : 1h 30mn
        Overall bit rate : 2 162 Kbps
        Encoded date : UTC 2017-08-11 05:20:10
        Writing application : mkvmerge v4.0.0 ('The Stars were mine') 编译于 Jun  6 2010 16:18:42
        Writing library : libebml v1.0.0 + libmatroska v1.0.0
      Video #1
        ID : 1
        Format : AVC
        Format/Info : Advanced Video Codec
        Format profile : High@L5.1
        Format settings, CABAC : Yes
        Format settings, ReFrames : 16 frames
        Codec ID : V_MPEG4/ISO/AVC
        Duration : 1h 30mn
        Bit rate : 1 966 Kbps
        Width : 1 024 pixels
        Height : 440 pixels
        Display aspect ratio : 2.35:1
        Frame rate mode : Constant
        Frame rate : 25.000 fps
        Color space : YUV
        Chroma subsampling : 4:2:0
        Bit depth : 8 bits
        Scan type : Progressive
        Bits/(Pixel*Frame) : 0.175
        Stream size : 1.22 GiB (89%)
        Writing library : x264 core 120 r2164 da19765
        Encoding settings : cabac=1 / ref=16 / deblock=1:-2:-1 / analyse=0x3:0x113 / me=umh / subme=9 / psy=1 / psy_rd=1.00:0.00 / mixed_ref=1 / me_range=32 / chroma_me=1 / trellis=1 / 8x8dct=1 / cqm=0 / deadzone=21,11 / fast_pskip=0 / chroma_qp_offset=-2 / threads=6 / sliced_threads=0 / nr=0 / decimate=0 / interlaced=0 / bluray_compat=0 / constrained_intra=0 / bframes=16 / b_pyramid=2 / b_adapt=1 / b_bias=0 / direct=1 / weightb=1 / open_gop=0 / weightp=2 / keyint=250 / keyint_min=25 / scenecut=40 / intra_refresh=0 / rc_lookahead=245 / rc=2pass / mbtree=1 / bitrate=1966 / ratetol=4.0 / qcomp=0.60 / qpmin=10 / qpmax=51 / qpstep=4 / cplxblur=20.0 / qblur=0.5 / ip_ratio=1.40 / aq=1:0.50
        Language : Chinese
        Default : Yes
        Forced : No
      Audio #2
        ID : 2
        Format : AC-3
        Format/Info : Audio Coding 3
        Mode extension : CM (complete main)
        Format settings, Endianness : Big
        Codec ID : A_AC3
        Duration : 1h 30mn
        Bit rate mode : Constant
        Bit rate : 192 Kbps
        Channel count : 2 channels
        Channel positions : Front: L R
        Sampling rate : 48.0 KHz
        Bit depth : 16 bits
        Compression mode : Lossy
        Stream size : 124 MiB (9%)
        Title : 国语
        Language : Chinese
        Default : Yes
        Forced : No
     

    ◎截      图





    ◎下载地址

    购买主题 已有 4 人购买  本主题需向作者支付 200 两银子 才能浏览
    缺银子?点我快速充值:银子充值

    422

    主题

    5

    好友

    7万

    积分

    化神修士

    Rank: 6Rank: 6

  • TA的每日心情
    无聊
    昨天 18:58
  • 签到天数: 782 天

    [LV.10]以坛为家III

    升级   3.1%

    内力
    3644 点
    在线时间
    2326 小时
    银子
    141849 两
    威望
    49 点
    金叶子
    0 片
    最后登录
    2017-8-18
    注册时间
    2015-5-2
    帖子
    2428
    精华
    11
    积分
    79488
    阅读权限
    70
    UID
    32517

    原创先锋奖

    发表于 2017-8-11 23:49:44 |显示全部楼层
    楼主辛苦了,我支持兄弟

    3

    主题

    0

    好友

    946

    积分

    凡人

    Rank: 1

  • TA的每日心情
    擦汗
    6 天前
  • 签到天数: 152 天

    [LV.7]常住居民III

    升级   37.84%

    内力
    425 点
    在线时间
    155 小时
    银子
    422 两
    威望
    0 点
    金叶子
    0 片
    最后登录
    2017-8-13
    注册时间
    2016-11-2
    帖子
    264
    精华
    0
    积分
    946
    阅读权限
    20
    UID
    34665
    发表于 7 天前 |显示全部楼层
    谢谢分享王羽电影!!

    78

    主题

    2

    好友

    2万

    积分

    元婴修士

    Rank: 5Rank: 5

  • TA的每日心情
    无聊
    昨天 08:44
  • 签到天数: 774 天

    [LV.10]以坛为家III

    升级   31.6%

    内力
    2204 点
    在线时间
    815 小时
    银子
    37400 两
    威望
    16 点
    金叶子
    0 片
    最后登录
    2017-8-18
    注册时间
    2014-11-14
    帖子
    896
    精华
    12
    积分
    22638
    阅读权限
    60
    UID
    31572
    发表于 7 天前 |显示全部楼层
    片子不错,收下了。支持兄弟
    初春南波杏飘香,盛夏朝河兰吐芳,深秋松岛枫落红,寒冬苍井空凝霜!

    5

    主题

    0

    好友

    9463

    积分

    结丹修士

    Rank: 4

  • TA的每日心情
    奋斗
    1 小时前
  • 签到天数: 1747 天

    [LV.Master]伴坛终老

    升级   78.52%

    内力
    4201 点
    在线时间
    1217 小时
    银子
    5577 两
    威望
    7 点
    金叶子
    0 片
    最后登录
    2017-8-19
    注册时间
    2011-6-9
    帖子
    1094
    精华
    2
    积分
    9463
    阅读权限
    50
    UID
    13199
    发表于 7 天前 |显示全部楼层
    时间是赎不回来的,好怀念那个年代的日子。
    该会员没有填写今日想说内容.

    95

    主题

    4

    好友

    4万

    积分

    元婴修士

    Rank: 5Rank: 5

  • TA的每日心情
    奋斗
    2 小时前
  • 签到天数: 825 天

    [LV.10]以坛为家III

    升级   75.18%

    内力
    2229 点
    在线时间
    1326 小时
    银子
    70264 两
    威望
    12 点
    金叶子
    0 片
    最后登录
    2017-8-19
    注册时间
    2013-3-8
    帖子
    747
    精华
    0
    积分
    40073
    阅读权限
    60
    UID
    25630
    发表于 6 天前 |显示全部楼层
    铁血精英 发表于 2017-8-11 23:49
    楼主辛苦了,我支持兄弟


    谢谢兄弟的支持,
    您需要登录后才可以回帖 登录 | 注册

    港知堂社区·免责声明
    本站仅供网友自由讨论使用,所有个人言论均不代表本站立场,与本站立场无关,本站不会对其內容负任何责任。
    本站内容均经过严格审查筛选,内容健康,如发现违反国家法律法规的內容,请立即联系我们,我们立刻从网站上删除,并致以最深的歉意。

    小黑屋|Archiver|排行榜|港知堂社区 | 港片爱好者之家 ( 沪ICP备09039913号 )

    Powered by Discuz! X2.5

    GMT+8, 2017-8-19 07:53 , Processed in 0.076852 second(s), 30 queries , Gzip On.

    回顶部